<?xml version="1.0" standalone="no"?>
<!DOCTYPE svg PUBLIC "-//W3C//DTD SVG 1.1//EN" "http://www.w3.org/Graphics/SVG/1.1/DTD/svg11.dtd" >
<svg xmlns="http://www.w3.org/2000/svg">
<metadata>
This is a custom SVG webfont generated by Font Squirrel.
Copyright   : Copyright c 2012 by Tore Rosbo at 1508 AS All rights reserved
Designer    : Tore Rosbo at 1508 AS
Foundry     : Tore Rosbo at 1508 AS
</metadata>
<defs>
<font id="CBSNEWRegular" horiz-adv-x="778" >
<font-face units-per-em="2048" ascent="1632" descent="-416" />
<missing-glyph horiz-adv-x="409" />
<glyph unicode=" "  horiz-adv-x="409" />
<glyph unicode="&#x09;" horiz-adv-x="409" />
<glyph unicode="&#xa0;" horiz-adv-x="409" />
<glyph unicode="!" horiz-adv-x="409" d="M139 0v152h131v-152h-131zM143 332v1102h123v-1102h-123z" />
<glyph unicode="&#x22;" horiz-adv-x="518" d="M82 1139v295h131v-295h-131zM305 1139v295h131v-295h-131z" />
<glyph unicode="#" d="M0 473v113h150l49 264h-199v113h221l88 471h117l-88 -471h174l88 471h117l-88 -471h149v-113h-172l-49 -264h221v-113h-243l-89 -473h-114l88 473h-176l-88 -473h-115l88 473h-129zM266 586h174l49 264h-174z" />
<glyph unicode="$" d="M98 199v278h131v-270q0 -51 39 -80t125 -29q80 0 119 29t39 80v217q0 51 -11.5 75.5t-37.5 53.5l-301 281q-45 41 -70 87t-25 134v180q0 184 226 207v196h123v-194q102 -10 162.5 -55.5t60.5 -143.5v-264h-131v256q0 41 -34 69.5t-120 28.5q-88 0 -121.5 -28.5 t-33.5 -69.5v-162q0 -59 9 -83.5t34 -49.5l323 -317q33 -33 55.5 -70t22.5 -109v-247q0 -49 -19.5 -87t-51 -62.5t-72.5 -39t-84 -18.5v-197h-123v195q-98 10 -166 57.5t-68 151.5z" />
<glyph unicode="%" d="M0 0l639 1434h129l-641 -1434h-127zM0 1051v231q0 82 52 123t138 41q82 0 136.5 -39t54.5 -125v-231q0 -92 -54.5 -130t-136.5 -38q-86 0 -138 38t-52 130zM113 1061q0 -78 77 -78q74 0 74 78v209q0 76 -74 76q-78 0 -77 -76v-209zM397 156v231q0 82 52.5 123t138.5 41 q82 0 136 -39t54 -125v-231q0 -92 -54 -130t-136 -38q-86 0 -138.5 38t-52.5 130zM510 166q0 -78 78 -78q74 0 74 78v209q0 76 -74 76q-78 0 -78 -76v-209z" />
<glyph unicode="&#x26;" horiz-adv-x="956" d="M41 199v276q0 72 29.5 118t62.5 75l119 102l-51 74q-49 70 -73 119t-24 118v154q0 106 74 158.5t199 52.5q143 0 210.5 -51.5t67.5 -149.5v-127q0 -37 -3 -67.5t-14 -60t-33.5 -61.5t-61.5 -71l-125 -110l276 -394l127 195h146l-199 -297l178 -252h-145l-109 152 q-35 -47 -65.5 -78t-69.5 -50.5t-88 -27.5t-119 -8q-166 0 -237.5 53.5t-71.5 157.5zM170 207q0 -51 41 -80t139 -29q49 0 86 8.5t68 27t57.5 48t56.5 72.5l-294 416l-91 -78q-23 -23 -43 -53.5t-20 -81.5v-250zM231 1085q0 -53 14.5 -79.5t35.5 -61.5l65 -94l115 100 q43 45 55 79t12 87v123q0 41 -32.5 69.5t-118.5 28.5q-80 0 -113 -28.5t-33 -69.5v-154z" />
<glyph unicode="'" horiz-adv-x="294" d="M82 1139v295h131v-295h-131z" />
<glyph unicode="(" horiz-adv-x="536" d="M102 717q0 227 39 409.5t92 307.5h99q-45 -147 -77 -333t-32 -384q0 -180 25.5 -368.5t81.5 -348.5h-99q-66 160 -97.5 345.5t-31.5 371.5z" />
<glyph unicode=")" horiz-adv-x="536" d="M205 1434h98q53 -125 92 -307.5t39 -409.5q0 -186 -31.5 -371.5t-97.5 -345.5h-98q55 160 80.5 348.5t25.5 368.5q0 199 -31.5 384.5t-76.5 332.5z" />
<glyph unicode="*" d="M94 1020l187 104l-187 107l58 96l184 -110l-2 217h112l-4 -215l185 108l57 -96l-186 -107l186 -104l-57 -96l-185 108l4 -213h-112l2 213l-184 -108z" />
<glyph unicode="+" d="M82 557v113h248v252h123v-252h243v-113h-243v-250h-123v250h-248z" />
<glyph unicode="," horiz-adv-x="319" d="M82 -143v295h156l-107 -295h-49z" />
<glyph unicode="-" horiz-adv-x="534" d="M86 557v113h363v-113h-363z" />
<glyph unicode="." horiz-adv-x="294" d="M82 0v152h131v-152h-131z" />
<glyph unicode="/" horiz-adv-x="772" d="M0 0l649 1434h129l-651 -1434h-127z" />
<glyph unicode="0" d="M84 231v973q0 53 14.5 97.5t50 77t94 50t146.5 17.5q90 0 148.5 -17.5t93.5 -50t49 -77t14 -97.5v-973q0 -53 -14 -98t-49 -76.5t-93.5 -50t-148.5 -18.5q-88 0 -146.5 18.5t-94 50t-50 76.5t-14.5 98zM207 223q0 -59 39 -97t143 -38t142 38t38 97v987q0 59 -37.5 97.5 t-142.5 38.5q-104 0 -143 -38t-39 -98v-987z" />
<glyph unicode="1" d="M162 1321v113h391v-1434h-123v1321h-268z" />
<glyph unicode="2" d="M117 0v367q0 72 22.5 107.5t55.5 70.5l327 358q25 27 34 50.5t9 82.5v211q0 41 -33.5 70t-130.5 29q-96 0 -128.5 -29t-32.5 -70v-233h-123v231q0 98 65.5 149.5t218.5 51.5q287 0 287 -211v-209q0 -43 -7 -74.5t-19.5 -56.5t-30 -46.5t-37.5 -43.5l-305 -332 q-27 -29 -38 -53.5t-11 -75.5v-231h448v-113h-571z" />
<glyph unicode="3" d="M102 186v267h123v-260q0 -47 36 -76t130 -29q92 0 129 28.5t37 76.5v389q0 53 -29.5 80.5t-115.5 27.5h-43v113h43q88 0 113.5 29.5t25.5 93.5v321q0 47 -37 73t-123 26q-88 0 -127 -26t-39 -73v-250h-123v250q0 92 65.5 145.5t223.5 53.5t220.5 -53.5t62.5 -145.5v-344 q0 -63 -25.5 -97t-73.5 -48v-17q45 -12 75 -40.5t30 -84.5v-430q0 -92 -72.5 -145t-216.5 -53q-154 0 -221.5 53t-67.5 145z" />
<glyph unicode="4" d="M96 410v147l379 877h127l-383 -897v-25h350v291h123v-803h-123v410h-473z" />
<glyph unicode="5" d="M117 199v254h123v-248q0 -51 32.5 -84t130.5 -33q94 0 127 33t33 84v497q0 25 -7 48.5t-25.5 42t-49 30t-78.5 11.5q-49 0 -80.5 -12.5t-50 -33t-25.5 -46t-7 -52.5h-123v744h536v-113h-413v-436q31 20 70.5 33.5t92.5 13.5q156 0 219.5 -58.5t63.5 -156.5v-518 q0 -45 -14.5 -84t-48 -67t-88 -44t-132.5 -16t-133 15t-89 44t-49 67t-15 85z" />
<glyph unicode="6" d="M98 197v460q0 68 13.5 115t23.5 76l232 586h135l-230 -560l11 -6q14 8 43.5 15.5t76.5 7.5q51 0 101.5 -9.5t89.5 -33t62.5 -63.5t23.5 -101v-487q0 -61 -23.5 -101.5t-63.5 -65t-93.5 -33.5t-110.5 -9q-59 0 -112.5 9t-93.5 33.5t-62.5 65t-22.5 101.5zM221 197 q0 -59 45 -84t123 -25t122 24.5t44 84.5v487q0 59 -44 84t-122 25t-123 -35t-45 -94v-467z" />
<glyph unicode="7" horiz-adv-x="776" d="M96 997v437h617v-148l-402 -1286h-127l406 1280v51h-371v-334h-123z" />
<glyph unicode="8" d="M96 186v430q0 55 30 84t75 41v17q-47 14 -73 48t-26 97v344q0 92 64.5 145.5t222.5 53.5t222.5 -53.5t64.5 -145.5v-344q0 -63 -25.5 -97t-72.5 -48v-17q45 -12 74.5 -40.5t29.5 -84.5v-430q0 -92 -75 -145t-218 -53t-218 53t-75 145zM219 193q0 -47 39 -76t131 -29 t131 28.5t39 76.5v389q0 53 -29.5 80.5t-115.5 27.5h-52q-86 0 -114.5 -27.5t-28.5 -80.5v-389zM225 926q0 -31 5.5 -54.5t19.5 -39t40.5 -22.5t71.5 -7h52q88 0 113.5 29.5t25.5 93.5v321q0 47 -39 73t-125 26t-125 -26t-39 -73v-321z" />
<glyph unicode="9" d="M98 750v487q0 61 23.5 101t63.5 64.5t92.5 34t111.5 9.5t112.5 -9.5t93.5 -34t62.5 -64.5t22.5 -101v-461q0 -68 -13.5 -115t-23.5 -75l-231 -586h-136l230 559l-12 4q-16 -6 -44 -13t-75 -7q-53 0 -103.5 9t-89.5 32.5t-61.5 64t-22.5 101.5zM223 750q0 -59 44 -84 t122 -25t123 35t45 94v467q0 59 -45 84t-123 25t-122 -25t-44 -84v-487z" />
<glyph unicode=":" horiz-adv-x="294" d="M82 0v152h131v-152h-131zM82 934v151h131v-151h-131z" />
<glyph unicode=";" horiz-adv-x="319" d="M82 -143v295h156l-107 -295h-49zM82 934v151h131v-151h-131z" />
<glyph unicode="&#x3c;" d="M82 537v147l614 389v-141l-501 -311v-21l501 -311v-142z" />
<glyph unicode="=" d="M82 412v112h614v-112h-614zM82 696v113h614v-113h-614z" />
<glyph unicode="&#x3e;" d="M82 147v142l502 311v21l-502 311v141l614 -389v-147z" />
<glyph unicode="?" horiz-adv-x="776" d="M102 997v232q0 98 65.5 149.5t219.5 51.5q287 0 287 -211v-209q0 -43 -7.5 -75t-19.5 -56.5t-29.5 -46t-37.5 -44.5l-95 -106q-27 -29 -38 -53.5t-11 -75.5v-221h-123v243q0 70 22.5 107t55.5 72l117 133q12 12 20.5 23.5t13.5 25.5t7 33.5t2 50.5v211q0 41 -34 69.5 t-130 28.5t-129 -28.5t-33 -69.5v-234h-123zM309 0h131v152h-131v-152z" />
<glyph unicode="@" horiz-adv-x="1298" d="M143 272v666q0 74 28 133t89.5 102.5t157.5 66t231 22.5q279 0 413 -88.5t134 -235.5v-578q0 -86 -58.5 -125.5t-144.5 -39.5q-59 0 -100 19t-64 48h-18q-49 -37 -95 -53t-91 -16q-104 0 -156.5 54t-52.5 154v385q0 100 52 154.5t157 54.5q45 0 82.5 -15t74.5 -38h17v41 h119v-643q4 -29 23.5 -39t51.5 -10q35 0 56.5 12t21.5 47v594q0 104 -108.5 160.5t-313.5 56.5q-203 0 -293 -57t-90 -160v-680q0 -72 21.5 -118t66.5 -72.5t117 -36.5t172 -10v-101q-135 0 -230.5 18.5t-155.5 60.5t-87 107.5t-27 159.5zM541 406q0 -53 24.5 -84t65.5 -31 q51 0 87 18.5t77 52.5v463q-27 29 -67 50.5t-97 21.5q-41 0 -65.5 -30.5t-24.5 -84.5v-376z" />
<glyph unicode="A" horiz-adv-x="860" d="M51 0l230 1434h297l231 -1434h-131l-66 438h-366l-64 -438h-131zM264 549h330l-119 774h-90z" />
<glyph unicode="B" horiz-adv-x="839" d="M123 0v1434h344q47 0 91 -8.5t78 -30t54.5 -57t20.5 -89.5v-344q0 -63 -26 -97t-73 -48v-21q45 -12 75 -40.5t30 -84.5v-428q0 -53 -20.5 -89t-55.5 -57.5t-80 -30.5t-94 -9h-344zM254 111h199q25 0 49 3t42.5 14t30 30.5t11.5 50.5v393q0 51 -40 69.5t-85 18.5h-207 v-579zM254 801h207q47 0 83 19.5t36 82.5v322q0 31 -11.5 50t-30 30.5t-42 14.5t-47.5 3h-195v-522z" />
<glyph unicode="C" horiz-adv-x="794" d="M123 186v1061q0 92 70.5 145.5t214.5 53.5q143 0 213.5 -53.5t70.5 -145.5v-291h-131v287q0 47 -37 69.5t-116 22.5q-154 0 -154 -92v-1053q0 -92 154 -92q80 0 116.5 22.5t36.5 69.5v304h131v-308q0 -92 -70.5 -145t-213.5 -53t-214 53t-71 145z" />
<glyph unicode="D" horiz-adv-x="858" d="M123 0v1434h389q68 0 111 -16.5t67.5 -46.5t34.5 -73t10 -96v-971q0 -53 -10 -95t-34.5 -72.5t-67.5 -47t-111 -16.5h-389zM254 111h233q66 0 91.5 24.5t25.5 87.5v989q0 61 -25.5 86t-91.5 25h-233v-1212z" />
<glyph unicode="E" horiz-adv-x="696" d="M123 0v1434h491v-111h-360v-522h350v-111h-350v-579h360v-111h-491z" />
<glyph unicode="F" horiz-adv-x="655" d="M123 0v1434h471v-111h-340v-522h330v-111h-330v-690h-131z" />
<glyph unicode="G" horiz-adv-x="864" d="M123 240v981q0 111 80 168t229 57q150 0 229.5 -57.5t79.5 -167.5v-203h-131v184q0 59 -40 96t-138 37t-138 -36.5t-40 -96.5v-960q0 -43 15.5 -72t41 -44t59 -21.5t70.5 -6.5q53 0 104.5 5.5t65.5 15.5v530h-147v111h278v-727q-104 -45 -288 -45q-178 0 -254 64.5 t-76 187.5z" />
<glyph unicode="H" horiz-adv-x="870" d="M123 0v1434h131v-633h362v633h132v-1434h-132v690h-362v-690h-131z" />
<glyph unicode="I" horiz-adv-x="376" d="M123 0v1434h131v-1434h-131z" />
<glyph unicode="J" horiz-adv-x="737" d="M61 186v248h132v-248q0 -47 39.5 -67.5t105.5 -20.5q145 0 145 86v1250h131v-1241q0 -111 -73.5 -158t-202.5 -47q-277 -1 -277 198z" />
<glyph unicode="K" horiz-adv-x="825" d="M123 0v1434h131v-633h65l322 633h143l-352 -684l373 -750h-143l-343 690h-65v-690h-131z" />
<glyph unicode="L" horiz-adv-x="645" d="M123 0v1434h131v-1323h371v-111h-502z" />
<glyph unicode="M" horiz-adv-x="1273" d="M123 0v1434h266l225 -1303h45l224 1303h268v-1434h-121v1323h-51l-236 -1323h-208l-240 1323h-51v-1323h-121z" />
<glyph unicode="N" horiz-adv-x="940" d="M123 0v1434h235l310 -1323h30v1323h119v-1434h-237l-304 1323h-34v-1323h-119z" />
<glyph unicode="O" horiz-adv-x="872" d="M123 231v973q0 53 16.5 97.5t53 77t97 50t146.5 17.5t146.5 -17.5t97.5 -50t53.5 -77t16.5 -97.5v-973q0 -53 -16.5 -98t-53.5 -76.5t-97.5 -50t-146.5 -18.5t-146.5 18.5t-97 50t-53 76.5t-16.5 98zM254 233q0 -59 39 -97t143 -38t142 38t38 97v967q0 59 -37.5 97 t-142.5 38q-104 0 -143 -37.5t-39 -97.5v-967z" />
<glyph unicode="P" horiz-adv-x="772" d="M123 0v1434h344q47 0 91 -8.5t78 -30t54.5 -57t20.5 -89.5v-385q0 -98 -61.5 -156.5t-166.5 -58.5h-229v-649h-131zM254 760h207q47 0 83 19.5t36 82.5v363q0 31 -11.5 50t-30 30.5t-42 14.5t-47.5 3h-195v-563z" />
<glyph unicode="Q" horiz-adv-x="872" d="M123 231v973q0 53 16.5 97.5t53 77t97 50t146.5 17.5t146.5 -17.5t97.5 -50t53.5 -77t16.5 -97.5v-973q0 -59 -25 -103t-63.5 -73.5t-89 -45t-101.5 -19.5v-164h-72v164q-80 4 -132 22.5t-84.5 50t-46 74.5t-13.5 94zM254 233q0 -55 29.5 -91t115.5 -44v185h72v-185 q86 6 115.5 43t29.5 92v967q0 59 -37.5 97t-142.5 38q-104 0 -143 -37.5t-39 -97.5v-967z" />
<glyph unicode="R" horiz-adv-x="819" d="M123 0v1434h344q47 0 91 -8.5t78 -30t54.5 -57t20.5 -89.5v-385q0 -45 -15.5 -79.5t-40 -59.5t-53.5 -40t-55 -23l172 -662h-133l-166 649h-166v-649h-131zM254 760h207q47 0 83 19.5t36 82.5v363q0 31 -11.5 50t-30 30.5t-42 14.5t-47.5 3h-195v-563z" />
<glyph unicode="S" horiz-adv-x="747" d="M82 199v278h131v-270q0 -51 39 -80t125 -29q80 0 119 29t39 80v217q0 51 -11.5 77.5t-38.5 51.5l-301 281q-43 41 -68.5 87t-25.5 134v180q0 211 287 211q154 0 219.5 -51.5t65.5 -149.5v-264h-132v256q0 41 -33.5 69.5t-119.5 28.5q-88 0 -122 -28.5t-34 -69.5v-162 q0 -59 9.5 -83.5t33.5 -49.5l324 -317q33 -33 55.5 -70t22.5 -109v-247q0 -104 -74 -157.5t-215 -53.5q-150 0 -222.5 50t-72.5 161z" />
<glyph unicode="T" horiz-adv-x="651" d="M31 1323v111h590v-111h-230v-1323h-131v1323h-229z" />
<glyph unicode="U" horiz-adv-x="860" d="M123 231v1203h131v-1201q0 -59 36 -97t140 -38t139 38t35 97v1201h133v-1203q0 -53 -15 -98t-51 -76.5t-95.5 -50t-145.5 -18.5t-145.5 18.5t-95 50t-51 76.5t-15.5 98z" />
<glyph unicode="V" horiz-adv-x="811" d="M51 1434h131l217 -1303h33l197 1303h131l-240 -1434h-211z" />
<glyph unicode="W" horiz-adv-x="1306" d="M51 1434h125l180 -1303h35l152 1305h231l162 -1305h35l159 1303h125l-198 -1434h-205l-184 1323h-29l-166 -1323h-205z" />
<glyph unicode="X" horiz-adv-x="819" d="M41 0l242 750l-228 684h138l194 -633h45l195 633h137l-225 -684l239 -750h-137l-209 690h-45l-209 -690h-137z" />
<glyph unicode="Y" horiz-adv-x="774" d="M31 1434h139l203 -668h28l203 668h139l-288 -871v-563h-131v557z" />
<glyph unicode="Z" horiz-adv-x="706" d="M61 0v213l457 1055v55h-438v111h565v-189l-455 -1079v-55h453v-111h-582z" />
<glyph unicode="[" horiz-adv-x="628" d="M102 0v1434h322v-103h-205v-1229h205v-102h-322z" />
<glyph unicode="\" horiz-adv-x="772" d="M0 1434h129l639 -1434h-127z" />
<glyph unicode="]" horiz-adv-x="628" d="M205 0v102h205v1229h-205v103h321v-1434h-321z" />
<glyph unicode="^" d="M80 819l225 615h168l225 -615h-120l-181 508h-18l-178 -508h-121z" />
<glyph unicode="_" d="M0 -102h778v-113h-778v113z" />
<glyph unicode="`" horiz-adv-x="768" d="M182 1300v21h150l125 -92v-21h-150z" />
<glyph unicode="a" horiz-adv-x="761" d="M92 199v207q0 84 43 125.5t123 78.5l266 123v174q0 49 -32.5 70.5t-110.5 21.5q-94 0 -124 -28.5t-30 -75.5v-102h-123v127q0 86 76 132t205 46t196.5 -42t67.5 -147v-909h-121v57h-14q-70 -70 -192 -69q-117 0 -173.5 55.5t-56.5 155.5zM215 203q0 -53 28.5 -84 t84.5 -31q55 0 97 24.5t99 84.5v415l-213 -100q-31 -14 -50 -25.5t-29.5 -26t-13.5 -34.5t-3 -51v-172z" />
<glyph unicode="b" horiz-adv-x="776" d="M113 0v1434h123v-404h12q27 20 49 32.5t42.5 21t43.5 11.5t51 3q117 0 173.5 -54.5t56.5 -154.5v-692q0 -100 -56.5 -154.5t-173.5 -54.5q-29 0 -51.5 3t-43 10t-42 20.5t-49.5 33.5h-17v-55h-118zM236 190q57 -55 97 -79.5t95 -24.5t83 30.5t28 84.5v684q0 53 -28 83.5 t-83 30.5t-95 -24.5t-97 -79.5v-705z" />
<glyph unicode="c" horiz-adv-x="735" d="M113 152v739q0 123 68.5 165t191.5 42t186.5 -43t63.5 -131v-191h-123v176q0 51 -28 70.5t-99 19.5q-63 0 -100 -21.5t-37 -68.5v-741q0 -80 131 -80q66 0 99.5 21.5t33.5 58.5v182h123v-180q0 -88 -63.5 -135t-192.5 -47q-117 0 -185.5 39t-68.5 125z" />
<glyph unicode="d" horiz-adv-x="776" d="M113 197v692q0 100 56 154.5t173 54.5q57 0 94 -14.5t92 -53.5h13v404h123v-1434h-119v55h-17q-29 -20 -50 -33.5t-41.5 -20.5t-43 -10t-51.5 -3q-117 0 -173 54.5t-56 154.5zM238 201q0 -53 27.5 -84t82.5 -31q53 0 94 23.5t99 80.5v705q-29 27 -52.5 46.5t-45 32.5 t-45 19t-50.5 6q-55 0 -82.5 -30.5t-27.5 -83.5v-684z" />
<glyph unicode="e" horiz-adv-x="774" d="M113 197v694q0 61 20.5 101t57 63.5t87 33t109.5 9.5t109.5 -9.5t87.5 -33t57.5 -63.5t20.5 -101v-381h-426v-313q0 -59 36.5 -84t114.5 -25t114 24.5t36 84.5v153h125v-153q0 -61 -20.5 -101.5t-57.5 -65t-87.5 -33.5t-109.5 -9t-109.5 9t-87 33.5t-57 65t-20.5 101.5z M236 623h301v268q0 59 -36 83.5t-114 24.5t-114.5 -24.5t-36.5 -83.5v-268z" />
<glyph unicode="f" horiz-adv-x="493" d="M51 973v112h133v140q0 100 55.5 154.5t172.5 54.5h30v-111h-24q-109 0 -109 -102v-136h133v-112h-133v-973h-125v973h-133z" />
<glyph unicode="g" horiz-adv-x="776" d="M113 299v590q0 100 56 154.5t173 54.5q57 0 94 -14.5t92 -53.5h17v55h119v-1052q0 -137 -78 -198.5t-197 -61.5q-135 0 -200.5 55t-65.5 154v18h123v-18q0 -16 5 -35t20.5 -35t43 -27.5t74.5 -11.5q152 0 152 160v125h-13q-29 -20 -50 -33.5t-41.5 -21t-43 -10.5 t-51.5 -3q-117 0 -173 54.5t-56 154.5zM238 303q0 -53 27.5 -84t82.5 -31q53 0 94 24t99 81v602q-29 27 -52.5 46.5t-45 32.5t-45 19t-50.5 6q-55 0 -82.5 -30.5t-27.5 -83.5v-582z" />
<glyph unicode="h" horiz-adv-x="772" d="M113 0v1434h123v-404h12q29 20 50 32.5t40.5 21t42 11.5t51.5 3q117 0 172 -54.5t55 -154.5v-889h-124v885q0 53 -27 83.5t-82 30.5t-94 -24.5t-96 -79.5v-895h-123z" />
<glyph unicode="i" horiz-adv-x="358" d="M113 1208v113h133v-113h-133zM117 0v1085h125v-1085h-125z" />
<glyph unicode="j" horiz-adv-x="397" d="M0 -104h47q109 0 109 102v1087h125v-1091q0 -100 -55.5 -154.5t-172.5 -54.5h-53v111zM152 1208v113h133v-113h-133z" />
<glyph unicode="k" horiz-adv-x="751" d="M113 0v1434h123v-791h45l282 442h142l-320 -493l346 -592h-139l-311 530h-45v-530h-123z" />
<glyph unicode="l" horiz-adv-x="348" d="M113 0v1434h123v-1434h-123z" />
<glyph unicode="m" horiz-adv-x="1179" d="M113 0v1085h118v-55h17q27 20 48 32.5t40.5 21t41 11.5t50.5 3q143 0 197 -90q35 27 61.5 44t51 27.5t49 14.5t57.5 4q117 0 170 -54.5t53 -154.5v-889h-125v885q0 53 -24.5 83.5t-79.5 30.5t-92 -24.5t-95 -79.5v-895h-125v885q0 53 -24.5 83.5t-79.5 30.5t-92 -24.5 t-94 -79.5v-895h-123z" />
<glyph unicode="n" horiz-adv-x="772" d="M113 0v1085h118v-55h17q29 20 50 32.5t40.5 21t42 11.5t51.5 3q117 0 172 -54.5t55 -154.5v-889h-124v885q0 53 -27 83.5t-82 30.5t-94 -24.5t-96 -79.5v-895h-123z" />
<glyph unicode="o" horiz-adv-x="774" d="M113 197v694q0 61 20.5 101t57 63.5t87 33t109.5 9.5t109.5 -9.5t87.5 -33t57.5 -63.5t20.5 -101v-694q0 -61 -20.5 -101.5t-57.5 -65t-87.5 -33.5t-109.5 -9t-109.5 9t-87 33.5t-57 65t-20.5 101.5zM236 197q0 -59 36.5 -84t114.5 -25t114 24.5t36 84.5v694 q0 59 -36 83.5t-114 24.5t-114.5 -24.5t-36.5 -83.5v-694z" />
<glyph unicode="p" horiz-adv-x="776" d="M113 -215v1300h118v-55h17q27 20 49 32.5t42.5 21t43.5 11.5t51 3q117 0 173.5 -54.5t56.5 -154.5v-692q0 -100 -56.5 -154.5t-173.5 -54.5q-29 0 -51.5 3t-43 10t-42 20.5t-49.5 33.5h-12v-270h-123zM236 190q57 -55 97 -79.5t95 -24.5t83 30.5t28 84.5v684 q0 53 -28 83.5t-83 30.5t-95 -24.5t-97 -79.5v-705z" />
<glyph unicode="q" horiz-adv-x="776" d="M113 197v692q0 100 56 154.5t173 54.5q57 0 94 -14.5t92 -53.5h17v55h119v-1300h-123v270h-13q-29 -20 -50 -33.5t-41.5 -20.5t-43 -10t-51.5 -3q-117 0 -173 54.5t-56 154.5zM238 201q0 -53 27.5 -84t82.5 -31q53 0 94 23.5t99 80.5v705q-29 27 -52.5 46.5t-45 32.5 t-45 19t-50.5 6q-55 0 -82.5 -30.5t-27.5 -83.5v-684z" />
<glyph unicode="r" horiz-adv-x="514" d="M113 0v1085h118v-67h17q25 18 43 31.5t37.5 20.5t43 11t58.5 4h43v-110h-43q-27 0 -49.5 -3t-44 -12.5t-46 -28t-54.5 -48.5v-883h-123z" />
<glyph unicode="s" horiz-adv-x="677" d="M82 158v192h123v-172q0 -37 27.5 -63.5t107.5 -26.5q78 0 105.5 27.5t27.5 64.5v135q0 45 -8 70t-37 45l-242 168q-35 25 -66.5 61.5t-31.5 112.5v139q0 92 69.5 139.5t194.5 47.5q70 0 116 -14.5t73.5 -38t40 -50t12.5 -51.5v-182h-115v164q0 37 -30.5 55t-102.5 18 q-78 0 -106.5 -22.5t-28.5 -54.5v-125q0 -25 5 -52.5t34 -50.5l254 -180q35 -27 63.5 -64.5t28.5 -95.5v-184q0 -88 -64.5 -135t-193.5 -47q-117 0 -186.5 39t-69.5 131z" />
<glyph unicode="t" horiz-adv-x="536" d="M51 973v112h133v349h125v-349h133v-112h-133v-760q0 -102 109 -102h47v-111h-53q-117 0 -172.5 54.5t-55.5 154.5v764h-133z" />
<glyph unicode="u" horiz-adv-x="772" d="M113 197v888h125v-884q0 -53 26.5 -84t81.5 -31q53 0 93 23.5t98 80.5v895h122v-1085h-118v55h-17q-29 -20 -50 -33.5t-40.5 -20.5t-41 -10t-52.5 -3q-117 0 -172 54.5t-55 154.5z" />
<glyph unicode="v" horiz-adv-x="669" d="M20 1085h123l174 -974h35l176 974h121l-200 -1085h-226z" />
<glyph unicode="w" horiz-adv-x="1165" d="M41 1085h129l149 -974h29l133 974h207l129 -974h29l151 974h127l-180 -1085h-209l-141 975h-23l-139 -975h-209z" />
<glyph unicode="x" horiz-adv-x="716" d="M20 0l201 559l-190 526h131l162 -462h57l162 462h129l-189 -526l213 -559h-133l-182 510h-57l-170 -510h-134z" />
<glyph unicode="y" horiz-adv-x="702" d="M20 1085h127l207 -874h29l174 874h125l-221 -1085q-20 -106 -70.5 -160.5t-165.5 -54.5h-53v111h47q55 0 83 23.5t38 80.5l22 111h-102z" />
<glyph unicode="z" horiz-adv-x="579" d="M41 0v164l373 776v43h-361v102h482v-161l-373 -789v-37h377v-98h-498z" />
<glyph unicode="{" horiz-adv-x="681" d="M41 672v110h47q109 0 109 103v340q0 100 55 154.5t172 54.5h53v-111h-47q-109 0 -108 -102v-340q0 -80 -66 -146v-16q31 -31 48.5 -69t17.5 -77v-360q0 -102 108 -102h47v-111h-53q-117 0 -172 54.5t-55 154.5v360q0 102 -109 103h-47z" />
<glyph unicode="|" horiz-adv-x="532" d="M205 -215v1751h123v-1751h-123z" />
<glyph unicode="}" horiz-adv-x="681" d="M205 0v111h47q109 0 108 102v360q0 39 17.5 77t48.5 69v16q-66 66 -66 146v340q0 102 -108 102h-47v111h53q117 0 172 -54.5t55 -154.5v-340q0 -102 109 -103h47v-110h-47q-109 0 -109 -103v-360q0 -100 -55 -154.5t-172 -54.5h-53z" />
<glyph unicode="~" d="M6 592l45 84q41 76 88 114.5t107 38.5q41 0 90 -18l164 -72q20 -10 47 -10q29 0 49 19.5t39 54.5l8 16h129l-29 -63q-74 -154 -194 -154q-41 0 -90 19l-164 71q-20 10 -47 10q-29 0 -49.5 -19t-38.5 -54l-21 -37h-133z" />
<glyph unicode="&#xa1;" horiz-adv-x="409" d="M139 1067v152h131v-152h-131zM143 -215v1102h123v-1102h-123z" />
<glyph unicode="&#xa2;" d="M135 152v739q0 106 52.5 150t146.5 55v204h110v-204q98 -10 149.5 -52.5t51.5 -119.5v-191h-123v176q0 51 -27.5 70.5t-99.5 19.5q-63 0 -100 -21.5t-37 -68.5v-741q0 -80 131 -80q66 0 99.5 21.5t33.5 58.5v182h123v-180q0 -160 -201 -178v-207h-110v205 q-92 8 -145.5 47t-53.5 115z" />
<glyph unicode="&#xa3;" d="M37 649v113h88v479q0 111 73.5 158t202.5 47q276 0 277 -199v-248h-131v248q0 47 -40 67.5t-106 20.5q-145 0 -145 -86v-487h172v-113h-172v-538h422v-111h-553v649h-88z" />
<glyph unicode="&#xa5;" d="M33 1434h139l199 -631h35l200 631h139l-215 -631h166v-113h-204l-35 -106v-60h239v-112h-239v-412h-131v412h-244v112h244v51l-39 115h-205v113h166z" />
<glyph unicode="&#xa6;" horiz-adv-x="532" d="M205 -215v747h123v-747h-123zM205 801v735h123v-735h-123z" />
<glyph unicode="&#xa7;" horiz-adv-x="747" d="M82 -4v184h131v-176q0 -51 39 -79.5t125 -28.5q80 0 119 28.5t39 79.5v80q0 51 -11.5 77.5t-38.5 51.5l-301 281q-45 41 -69.5 87t-24.5 134v55q0 117 88 168v29q-43 41 -65.5 88t-22.5 133v47q0 211 287 211q154 0 219.5 -51.5t65.5 -149.5v-168h-132v160 q0 41 -33.5 69.5t-119.5 28.5q-88 0 -122 -28.5t-34 -69.5v-25q0 -59 9.5 -83.5t33.5 -49.5l324 -317q33 -33 55.5 -70t22.5 -108v-121q0 -47 -16.5 -80t-45.5 -57v-29q27 -33 44.5 -79t17.5 -107v-115q0 -104 -74 -157.5t-215 -53.5q-150 0 -222.5 50t-72.5 161zM221 739 q0 -59 9.5 -84.5t33.5 -48.5l230 -207q41 25 41 72v86q0 51 -11.5 78t-38.5 51l-190 174q-41 -12 -57.5 -35.5t-16.5 -52.5v-33z" />
<glyph unicode="&#xa8;" horiz-adv-x="768" d="M211 1208v113h133v-113h-133zM444 1208v113h134v-113h-134z" />
<glyph unicode="&#xa9;" horiz-adv-x="1277" d="M113 393v647q0 199 116.5 302.5t388.5 103.5q281 0 414 -103.5t133 -302.5v-647q0 -199 -116.5 -302t-389.5 -103q-281 0 -413.5 103t-132.5 302zM236 387q0 -154 109.5 -226.5t313.5 -72.5q203 0 293 72.5t90 226.5v660q0 154 -109.5 226.5t-314.5 72.5 q-203 0 -292.5 -73t-89.5 -226v-660zM453 401v631q0 63 47 101t141 38q98 0 143 -37.5t45 -101.5v-190h-116v188q0 35 -72 35q-70 0 -70 -35v-627q0 -35 70 -34q72 0 72 34v201h116v-203q0 -63 -45 -101t-143 -38q-94 0 -141 38t-47 101z" />
<glyph unicode="&#xaa;" horiz-adv-x="489" d="M82 977v100q0 51 25.5 77t72.5 48l113 55v68q0 16 -43 16q-29 0 -38 -6t-9 -16v-66h-115v78q0 55 45 85t119 30q76 0 116 -27.5t40 -93.5v-475h-113v20h-10q-27 -27 -64 -26q-139 0 -139 133zM197 979q0 -29 28 -29q16 0 31.5 7.5t36.5 29.5v148l-64 -31 q-23 -10 -27.5 -17.5t-4.5 -25.5v-82z" />
<glyph unicode="&#xab;" horiz-adv-x="872" d="M82 565v94l375 426v-170l-258 -290v-25l258 -291v-170zM416 565v94l375 426v-170l-259 -290v-25l259 -291v-170z" />
<glyph unicode="&#xac;" d="M82 557v113h614v-363h-123v250h-491z" />
<glyph unicode="&#xad;" horiz-adv-x="534" d="M86 557v113h363v-113h-363z" />
<glyph unicode="&#xae;" horiz-adv-x="1277" d="M113 393v647q0 199 116.5 302.5t388.5 103.5q281 0 414 -103.5t133 -302.5v-647q0 -199 -116.5 -302t-389.5 -103q-281 0 -413.5 103t-132.5 302zM236 387q0 -154 109.5 -226.5t313.5 -72.5q203 0 293 72.5t90 226.5v660q0 154 -109.5 226.5t-314.5 72.5 q-203 0 -292.5 -73t-89.5 -226v-660zM453 272v889h223q31 0 61.5 -6t53 -20.5t37 -39t14.5 -61.5v-231q0 -51 -30 -85t-60 -46l100 -400h-121l-96 385h-66v-385h-116zM569 762h103q23 0 38 7t15 34v215q0 27 -18.5 34t-40.5 7h-97v-297z" />
<glyph unicode="&#xaf;" horiz-adv-x="768" d="M205 1208v113h358v-113h-358z" />
<glyph unicode="&#xb0;" horiz-adv-x="501" d="M82 1186v157q0 47 21.5 69t72.5 22h152q49 0 70.5 -21.5t21.5 -69.5v-157q0 -47 -21.5 -68.5t-70.5 -21.5h-152q-51 0 -72.5 21.5t-21.5 68.5zM170 1208q0 -18 6 -26t25 -8h102q18 0 24.5 8t6.5 26v123q-4 25 -31 25h-102q-29 0 -31 -25v-123z" />
<glyph unicode="&#xb1;" d="M82 197v112h614v-112h-614zM82 557v113h248v252h123v-252h243v-113h-243v-127h-123v127h-248z" />
<glyph unicode="&#xb2;" horiz-adv-x="444" d="M82 854v162q0 35 15.5 56.5t31.5 37.5l104 117q12 12 15.5 20t3.5 21v51q0 25 -29 24q-33 0 -33 -24v-70h-108v86q0 53 32.5 82t110.5 29q137 0 137 -115v-63q0 -41 -14 -69t-37 -50l-104 -107q-18 -18 -19 -34v-45h174v-109h-280z" />
<glyph unicode="&#xb3;" horiz-adv-x="456" d="M82 952v90h115v-71q0 -18 30 -19q35 0 35 19v110q0 20 -20 21h-45v108h43q20 0 20 21v90q0 18 -33 18q-31 0 -30 -18v-68h-115v86q0 47 35 77t110 30q78 0 112 -30t34 -77v-125q0 -37 -25 -51v-8q10 -4 18.5 -16.5t8.5 -28.5v-158q0 -47 -39 -77.5t-109 -30.5 q-74 0 -109.5 30.5t-35.5 77.5z" />
<glyph unicode="&#xb4;" horiz-adv-x="768" d="M322 1208v21l124 92h150v-21l-125 -92h-149z" />
<glyph unicode="&#xb5;" d="M113 -215v1300h123v-895q4 -47 37.5 -75.5t86.5 -28.5t93.5 23.5t97.5 80.5v895h123v-1085h-119v55h-16q-29 -20 -50.5 -33.5t-41 -20.5t-41 -10t-52.5 -3q-68 0 -118 37v-240h-123z" />
<glyph unicode="&#x3bc;" d="M113 -215v1300h123v-895q4 -47 37.5 -75.5t86.5 -28.5t93.5 23.5t97.5 80.5v895h123v-1085h-119v55h-16q-29 -20 -50.5 -33.5t-41 -20.5t-41 -10t-52.5 -3q-68 0 -118 37v-240h-123z" />
<glyph unicode="&#xb6;" horiz-adv-x="905" d="M61 864v385q0 53 20.5 89t54.5 57.5t78 30t91 8.5h477v-1649h-131v1538h-131v-1538h-131v864h-100q-104 0 -166 58.5t-62 156.5zM193 862q0 -63 35.5 -82.5t82.5 -19.5h78v563h-65q-25 0 -48.5 -3t-42 -14.5t-29.5 -31t-11 -49.5v-363z" />
<glyph unicode="&#xb7;" horiz-adv-x="294" d="M82 539v151h131v-151h-131z" />
<glyph unicode="&#xb8;" horiz-adv-x="768" d="M334 -215l18 57h54q18 0 24 6.5t6 24.5q0 27 -18 27h-53l30 100h64l-15 -43q37 -2 52.5 -17.5t15.5 -50.5v-32q0 -39 -17.5 -55.5t-62.5 -16.5h-98z" />
<glyph unicode="&#xb9;" horiz-adv-x="372" d="M82 1325v109h209v-580h-115v471h-94z" />
<glyph unicode="&#xba;" horiz-adv-x="536" d="M82 1022v248q0 88 53 132t131 44q82 0 135.5 -42t53.5 -134v-248q0 -98 -53.5 -139t-135.5 -41q-78 0 -131 41t-53 139zM193 1032q0 -84 73 -84q41 0 57.5 20.5t16.5 63.5v225q0 41 -16.5 61.5t-57.5 20.5q-74 0 -73 -82v-225z" />
<glyph unicode="&#xbb;" horiz-adv-x="872" d="M82 139v170l258 291v25l-258 290v170l375 -426v-94zM416 139v170l258 291v25l-258 290v170l375 -426v-94z" />
<glyph unicode="&#xbc;" d="M0 0l649 1434h129l-651 -1434h-127zM0 1325v109h209v-580h-115v471h-94zM465 145v99l147 336h125l-133 -304v-22h60v65h114v-319h-114v145h-199z" />
<glyph unicode="&#xbd;" d="M0 0l649 1434h129l-651 -1434h-127zM0 1325v109h209v-580h-115v471h-94zM498 0v162q0 35 15 56.5t32 37.5l104 117q12 12 15.5 20t3.5 21v51q0 25 -29 24q-33 0 -33 -24v-70h-108v86q0 53 32.5 82t110.5 29q137 0 137 -115v-63q0 -41 -14 -69t-37 -50l-104 -107 q-18 -18 -19 -34v-45h174v-109h-280z" />
<glyph unicode="&#xbe;" d="M0 0l649 1434h129l-651 -1434h-127zM0 952v90h115v-71q0 -18 30 -19q35 0 35 19v110q0 20 -20 21h-45v108h43q20 0 20 21v90q0 18 -33 18q-31 0 -30 -18v-68h-115v86q0 47 35 77t110 30q78 0 112 -30t34 -77v-125q0 -37 -25 -51v-8q10 -4 18.5 -16.5t8.5 -28.5v-158 q0 -47 -39 -77.5t-109 -30.5q-74 0 -109.5 30.5t-35.5 77.5zM465 145v99l147 336h125l-133 -304v-22h60v65h114v-319h-114v145h-199z" />
<glyph unicode="&#xbf;" horiz-adv-x="776" d="M102 -16v209q0 43 7.5 74.5t19.5 56t29.5 46t38.5 44.5l94 106q27 29 38 53.5t11 75.5v221h123v-243q0 -70 -22.5 -107t-55.5 -71l-117 -134q-12 -14 -20 -25t-13.5 -24.5t-7.5 -33t-2 -50.5v-211q0 -41 34 -69.5t130 -28.5t129 28.5t33 69.5v234h123v-232 q0 -98 -65.5 -149t-219.5 -51q-287 0 -287 211zM336 1051v151h131v-151h-131z" />
<glyph unicode="&#xc0;" horiz-adv-x="860" d="M51 0l230 1434h297l231 -1434h-131l-66 438h-366l-64 -438h-131zM264 549h330l-119 774h-90zM305 1628v21h150l125 -92v-21h-150z" />
<glyph unicode="&#xc1;" horiz-adv-x="860" d="M51 0l230 1434h297l231 -1434h-131l-66 438h-366l-64 -438h-131zM264 549h330l-119 774h-90zM326 1536v21l124 92h150v-21l-125 -92h-149z" />
<glyph unicode="&#xc2;" horiz-adv-x="860" d="M51 0l230 1434h297l231 -1434h-131l-66 438h-366l-64 -438h-131zM264 549h330l-119 774h-90zM223 1536v21l125 92h160l124 -92v-21h-149l-57 49l-54 -49h-149z" />
<glyph unicode="&#xc3;" horiz-adv-x="860" d="M51 0l230 1434h297l231 -1434h-131l-66 438h-366l-64 -438h-131zM264 549h330l-119 774h-90zM158 1536v21l125 92h159l49 -45l52 45h149v-21l-125 -92h-149l-58 49l-53 -49h-149z" />
<glyph unicode="&#xc4;" horiz-adv-x="860" d="M51 0l230 1434h297l231 -1434h-131l-66 438h-366l-64 -438h-131zM264 549h330l-119 774h-90zM246 1536v113h133v-113h-133zM479 1536v113h134v-113h-134z" />
<glyph unicode="&#xc5;" horiz-adv-x="860" d="M51 0l230 1434h297l231 -1434h-131l-66 438h-366l-64 -438h-131zM264 549h330l-119 774h-90zM281 1380v158q0 47 20.5 68.5t71.5 21.5h112q51 0 72 -21.5t21 -68.5v-178l-86 20v19l-99 -31q-2 4 -4 7t-4 7q-8 10 -18 35v-37h-86zM367 1468q0 -18 6 -26t24 -8h64 q18 0 24.5 7t6.5 27v48q0 18 -6.5 26t-24.5 8h-64q-18 0 -24 -8t-6 -26v-48z" />
<glyph unicode="&#xc6;" horiz-adv-x="1124" d="M51 0l230 1434h761v-111h-360v-522h350v-111h-350v-579h360v-111h-491v438h-305l-64 -438h-131zM264 549h287v774h-166z" />
<glyph unicode="&#xc7;" horiz-adv-x="794" d="M123 186v1061q0 92 70.5 145.5t214.5 53.5q143 0 213.5 -53.5t70.5 -145.5v-291h-131v287q0 47 -37 69.5t-116 22.5q-154 0 -154 -92v-1053q0 -92 154 -92q80 0 116.5 22.5t36.5 69.5v304h131v-308q0 -92 -70.5 -145t-213.5 -53t-214 53t-71 145zM311 -215l18 57h54 q18 0 24 6.5t6 24.5q0 27 -18 27h-53l30 100h64l-15 -43q37 -2 52.5 -17.5t15.5 -50.5v-32q0 -39 -17.5 -55.5t-62.5 -16.5h-98z" />
<glyph unicode="&#xc8;" horiz-adv-x="696" d="M123 0v1434h491v-111h-360v-522h350v-111h-350v-579h360v-111h-491zM182 1628v21h150l125 -92v-21h-150z" />
<glyph unicode="&#xc9;" horiz-adv-x="696" d="M123 0v1434h491v-111h-360v-522h350v-111h-350v-579h360v-111h-491zM256 1536v21l124 92h150v-21l-125 -92h-149z" />
<glyph unicode="&#xca;" horiz-adv-x="696" d="M123 0v1434h491v-111h-360v-522h350v-111h-350v-579h360v-111h-491zM166 1536v21l125 92h160l124 -92v-21h-149l-57 49l-54 -49h-149z" />
<glyph unicode="&#xcb;" horiz-adv-x="696" d="M123 0v1434h491v-111h-360v-522h350v-111h-350v-579h360v-111h-491zM188 1536v113h133v-113h-133zM421 1536v113h134v-113h-134z" />
<glyph unicode="&#xcc;" horiz-adv-x="376" d="M123 0v1434h131v-1434h-131zM-6 1628v21h150l125 -92v-21h-150z" />
<glyph unicode="&#xcd;" horiz-adv-x="376" d="M123 0v1434h131v-1434h-131zM113 1536v21l124 92h150v-21l-125 -92h-149z" />
<glyph unicode="&#xce;" horiz-adv-x="376" d="M123 0v1434h131v-1434h-131zM-14 1536v21l125 92h160l124 -92v-21h-149l-57 49l-54 -49h-149z" />
<glyph unicode="&#xcf;" horiz-adv-x="376" d="M123 0v1434h131v-1434h-131zM8 1536v113h133v-113h-133zM241 1536v113h134v-113h-134z" />
<glyph unicode="&#xd0;" horiz-adv-x="878" d="M20 690v111h123v633h389q68 0 111 -16.5t67.5 -46.5t35 -73t10.5 -96v-971q0 -53 -10.5 -95t-35 -72.5t-67.5 -47t-111 -16.5h-389v690h-123zM274 111h234q66 0 91.5 24.5t25.5 87.5v989q0 61 -26 86t-91 25h-234v-522h123v-111h-123v-579z" />
<glyph unicode="&#xd1;" horiz-adv-x="940" d="M123 0v1434h235l310 -1323h30v1323h119v-1434h-237l-304 1323h-34v-1323h-119zM203 1536v21l125 92h159l49 -45l52 45h149v-21l-125 -92h-149l-58 49l-53 -49h-149z" />
<glyph unicode="&#xd2;" horiz-adv-x="872" d="M123 231v973q0 53 16.5 97.5t53 77t97 50t146.5 17.5t146.5 -17.5t97.5 -50t53.5 -77t16.5 -97.5v-973q0 -53 -16.5 -98t-53.5 -76.5t-97.5 -50t-146.5 -18.5t-146.5 18.5t-97 50t-53 76.5t-16.5 98zM254 233q0 -59 39 -97t143 -38t142 38t38 97v967q0 59 -37.5 97 t-142.5 38q-104 0 -143 -37.5t-39 -97.5v-967zM291 1628v21h150l125 -92v-21h-150z" />
<glyph unicode="&#xd3;" horiz-adv-x="872" d="M123 231v973q0 53 16.5 97.5t53 77t97 50t146.5 17.5t146.5 -17.5t97.5 -50t53.5 -77t16.5 -97.5v-973q0 -53 -16.5 -98t-53.5 -76.5t-97.5 -50t-146.5 -18.5t-146.5 18.5t-97 50t-53 76.5t-16.5 98zM254 233q0 -59 39 -97t143 -38t142 38t38 97v967q0 59 -37.5 97 t-142.5 38q-104 0 -143 -37.5t-39 -97.5v-967zM322 1536v21l124 92h150v-21l-125 -92h-149z" />
<glyph unicode="&#xd4;" horiz-adv-x="872" d="M123 231v973q0 53 16.5 97.5t53 77t97 50t146.5 17.5t146.5 -17.5t97.5 -50t53.5 -77t16.5 -97.5v-973q0 -53 -16.5 -98t-53.5 -76.5t-97.5 -50t-146.5 -18.5t-146.5 18.5t-97 50t-53 76.5t-16.5 98zM254 233q0 -59 39 -97t143 -38t142 38t38 97v967q0 59 -37.5 97 t-142.5 38q-104 0 -143 -37.5t-39 -97.5v-967zM227 1536v21l125 92h160l124 -92v-21h-149l-57 49l-54 -49h-149z" />
<glyph unicode="&#xd5;" horiz-adv-x="872" d="M123 231v973q0 53 16.5 97.5t53 77t97 50t146.5 17.5t146.5 -17.5t97.5 -50t53.5 -77t16.5 -97.5v-973q0 -53 -16.5 -98t-53.5 -76.5t-97.5 -50t-146.5 -18.5t-146.5 18.5t-97 50t-53 76.5t-16.5 98zM254 233q0 -59 39 -97t143 -38t142 38t38 97v967q0 59 -37.5 97 t-142.5 38q-104 0 -143 -37.5t-39 -97.5v-967zM160 1536v21l125 92h159l49 -45l52 45h149v-21l-125 -92h-149l-58 49l-53 -49h-149z" />
<glyph unicode="&#xd6;" horiz-adv-x="872" d="M123 231v973q0 53 16.5 97.5t53 77t97 50t146.5 17.5t146.5 -17.5t97.5 -50t53.5 -77t16.5 -97.5v-973q0 -53 -16.5 -98t-53.5 -76.5t-97.5 -50t-146.5 -18.5t-146.5 18.5t-97 50t-53 76.5t-16.5 98zM254 233q0 -59 39 -97t143 -38t142 38t38 97v967q0 59 -37.5 97 t-142.5 38q-104 0 -143 -37.5t-39 -97.5v-967zM252 1536v113h133v-113h-133zM485 1536v113h134v-113h-134z" />
<glyph unicode="&#xd7;" d="M129 438l174 174l-174 176l84 86l176 -176l176 176l84 -86l-176 -176l176 -174l-86 -84l-174 174l-174 -174z" />
<glyph unicode="&#xd8;" horiz-adv-x="872" d="M123 231v973q0 53 16.5 97.5t53 77t97 50t146.5 17.5t146.5 -17.5t97.5 -50t53.5 -77t16.5 -97.5v-973q0 -53 -16.5 -98t-53.5 -76.5t-97.5 -50t-146.5 -18.5t-146.5 18.5t-97 50t-53 76.5t-16.5 98zM254 365l360 852q-4 45 -36 79q-37 39 -142 39q-104 0 -143 -37.5 t-39 -97.5v-835zM258 193q8 -31 35 -58q39 -37 143 -37t142 37q39 39 38 98v801z" />
<glyph unicode="&#xd9;" horiz-adv-x="860" d="M123 231v1203h131v-1201q0 -59 36 -97t140 -38t139 38t35 97v1201h133v-1203q0 -53 -15 -98t-51 -76.5t-95.5 -50t-145.5 -18.5t-145.5 18.5t-95 50t-51 76.5t-15.5 98zM262 1628v21h150l125 -92v-21h-150z" />
<glyph unicode="&#xda;" horiz-adv-x="860" d="M123 231v1203h131v-1201q0 -59 36 -97t140 -38t139 38t35 97v1201h133v-1203q0 -53 -15 -98t-51 -76.5t-95.5 -50t-145.5 -18.5t-145.5 18.5t-95 50t-51 76.5t-15.5 98zM334 1536v21l124 92h150v-21l-125 -92h-149z" />
<glyph unicode="&#xdb;" horiz-adv-x="860" d="M123 231v1203h131v-1201q0 -59 36 -97t140 -38t139 38t35 97v1201h133v-1203q0 -53 -15 -98t-51 -76.5t-95.5 -50t-145.5 -18.5t-145.5 18.5t-95 50t-51 76.5t-15.5 98zM223 1536v21l125 92h160l124 -92v-21h-149l-57 49l-54 -49h-149z" />
<glyph unicode="&#xdc;" horiz-adv-x="860" d="M123 231v1203h131v-1201q0 -59 36 -97t140 -38t139 38t35 97v1201h133v-1203q0 -53 -15 -98t-51 -76.5t-95.5 -50t-145.5 -18.5t-145.5 18.5t-95 50t-51 76.5t-15.5 98zM246 1536v113h133v-113h-133zM479 1536v113h134v-113h-134z" />
<glyph unicode="&#xdd;" horiz-adv-x="794" d="M41 1434h139l203 -668h28l203 668h139l-288 -871v-563h-131v557zM263 1536v21l124 92h150v-21l-125 -92h-149z" />
<glyph unicode="&#xde;" horiz-adv-x="813" d="M123 0v1434h131v-349h213q47 0 91 -8t78 -29.5t54.5 -57.5t20.5 -89v-385q0 -98 -61.5 -156.5t-166.5 -58.5h-229v-301h-131zM254 412h207q47 0 83 19.5t36 82.5v363q0 31 -11.5 50t-30 30.5t-42 14.5t-47.5 3h-195v-563z" />
<glyph unicode="&#xdf;" horiz-adv-x="942" d="M115 0v1239q0 47 10 86t39 65.5t80 41t133 14.5t137 -12.5t88 -39t46.5 -69.5t13.5 -106v-39q0 -76 -32 -113t-67 -61l-82 -56q-29 -20 -37 -44.5t-8 -69.5v-27q0 -49 39 -80l254 -180q35 -27 63.5 -65t28.5 -95v-166q0 -111 -60.5 -167t-215.5 -56h-232v100h232 q94 0 123.5 37t29.5 96v113q0 45 -8 69.5t-37 45.5l-241 168q-35 25 -67 61.5t-32 112.5v76q0 57 21.5 92t58.5 59l107 74q29 23 34 51.5t5 52.5v21q0 25 -5.5 47t-20.5 37.5t-47 25t-83 9.5q-49 0 -79 -9.5t-47 -25t-22.5 -38t-5.5 -46.5v-1229h-114z" />
<glyph unicode="&#xe0;" horiz-adv-x="761" d="M92 199v207q0 84 43 125.5t123 78.5l266 123v174q0 49 -32.5 70.5t-110.5 21.5q-94 0 -124 -28.5t-30 -75.5v-102h-123v127q0 86 76 132t205 46t196.5 -42t67.5 -147v-909h-121v57h-14q-70 -70 -192 -69q-117 0 -173.5 55.5t-56.5 155.5zM215 203q0 -53 28.5 -84 t84.5 -31q55 0 97 24.5t99 84.5v415l-213 -100q-31 -14 -50 -25.5t-29.5 -26t-13.5 -34.5t-3 -51v-172zM215 1300v21h150l125 -92v-21h-150z" />
<glyph unicode="&#xe1;" horiz-adv-x="761" d="M92 199v207q0 84 43 125.5t123 78.5l266 123v174q0 49 -32.5 70.5t-110.5 21.5q-94 0 -124 -28.5t-30 -75.5v-102h-123v127q0 86 76 132t205 46t196.5 -42t67.5 -147v-909h-121v57h-14q-70 -70 -192 -69q-117 0 -173.5 55.5t-56.5 155.5zM215 203q0 -53 28.5 -84 t84.5 -31q55 0 97 24.5t99 84.5v415l-213 -100q-31 -14 -50 -25.5t-29.5 -26t-13.5 -34.5t-3 -51v-172zM269 1208v21l124 92h150v-21l-125 -92h-149z" />
<glyph unicode="&#xe2;" horiz-adv-x="761" d="M92 199v207q0 84 43 125.5t123 78.5l266 123v174q0 49 -32.5 70.5t-110.5 21.5q-94 0 -124 -28.5t-30 -75.5v-102h-123v127q0 86 76 132t205 46t196.5 -42t67.5 -147v-909h-121v57h-14q-70 -70 -192 -69q-117 0 -173.5 55.5t-56.5 155.5zM215 203q0 -53 28.5 -84 t84.5 -31q55 0 97 24.5t99 84.5v415l-213 -100q-31 -14 -50 -25.5t-29.5 -26t-13.5 -34.5t-3 -51v-172zM176 1208v21l125 92h160l124 -92v-21h-149l-57 49l-54 -49h-149z" />
<glyph unicode="&#xe3;" horiz-adv-x="761" d="M92 199v207q0 84 43 125.5t123 78.5l266 123v174q0 49 -32.5 70.5t-110.5 21.5q-94 0 -124 -28.5t-30 -75.5v-102h-123v127q0 86 76 132t205 46t196.5 -42t67.5 -147v-909h-121v57h-14q-70 -70 -192 -69q-117 0 -173.5 55.5t-56.5 155.5zM215 203q0 -53 28.5 -84 t84.5 -31q55 0 97 24.5t99 84.5v415l-213 -100q-31 -14 -50 -25.5t-29.5 -26t-13.5 -34.5t-3 -51v-172zM115 1208v21l125 92h159l49 -45l52 45h149v-21l-125 -92h-149l-58 49l-53 -49h-149z" />
<glyph unicode="&#xe4;" horiz-adv-x="761" d="M92 199v207q0 84 43 125.5t123 78.5l266 123v174q0 49 -32.5 70.5t-110.5 21.5q-94 0 -124 -28.5t-30 -75.5v-102h-123v127q0 86 76 132t205 46t196.5 -42t67.5 -147v-909h-121v57h-14q-70 -70 -192 -69q-117 0 -173.5 55.5t-56.5 155.5zM215 203q0 -53 28.5 -84 t84.5 -31q55 0 97 24.5t99 84.5v415l-213 -100q-31 -14 -50 -25.5t-29.5 -26t-13.5 -34.5t-3 -51v-172zM203 1208v113h133v-113h-133zM436 1208v113h134v-113h-134z" />
<glyph unicode="&#xe5;" horiz-adv-x="761" d="M92 199v207q0 84 43 125.5t123 78.5l266 123v174q0 49 -32.5 70.5t-110.5 21.5q-94 0 -124 -28.5t-30 -75.5v-102h-123v127q0 86 76 132t205 46t196.5 -42t67.5 -147v-909h-121v57h-14q-70 -70 -192 -69q-117 0 -173.5 55.5t-56.5 155.5zM215 203q0 -53 28.5 -84 t84.5 -31q55 0 97 24.5t99 84.5v415l-213 -100q-31 -14 -50 -25.5t-29.5 -26t-13.5 -34.5t-3 -51v-172zM246 1239v75q0 47 21.5 69t72.5 22h90q49 0 70.5 -21.5t21.5 -69.5v-75q0 -47 -21.5 -68.5t-70.5 -21.5h-90q-51 0 -72.5 21.5t-21.5 68.5zM334 1261q0 -18 6 -26.5 t25 -8.5h41q18 0 24 8.5t6 26.5v41q-4 25 -30 25h-41q-29 0 -31 -25v-41z" />
<glyph unicode="&#xe6;" horiz-adv-x="1181" d="M92 199v207q0 84 43 125.5t123 78.5l266 123v174q0 49 -32.5 70.5t-110.5 21.5q-94 0 -124 -28.5t-30 -75.5v-102h-123v127q0 86 76 132t205 46q154 0 207 -62q68 61 203 62q59 0 109 -9.5t87 -33t57.5 -63.5t20.5 -101v-381h-426v-313q0 -59 37 -84t115 -25t113.5 24.5 t35.5 84.5v153h125v-153q0 -61 -20.5 -101.5t-57.5 -65t-87 -33.5t-109 -9q-86 0 -146.5 18.5t-91.5 69.5h-12q-51 -47 -98.5 -67.5t-124.5 -20.5q-117 0 -173.5 55.5t-56.5 155.5zM215 203q0 -53 28.5 -84t84.5 -31q55 0 102 31t94 78v411l-213 -100q-31 -16 -50 -27.5 t-29.5 -26t-13.5 -34t-3 -49.5v-168zM643 623h301v268q0 59 -36 83.5t-113 24.5q-78 0 -115 -24.5t-37 -83.5v-268z" />
<glyph unicode="&#xe7;" horiz-adv-x="735" d="M113 152v739q0 123 68.5 165t191.5 42t186.5 -43t63.5 -131v-191h-123v176q0 51 -28 70.5t-99 19.5q-63 0 -100 -21.5t-37 -68.5v-741q0 -80 131 -80q66 0 99.5 21.5t33.5 58.5v182h123v-180q0 -88 -63.5 -135t-192.5 -47q-117 0 -185.5 39t-68.5 125zM281 -215l18 57h54 q18 0 24 6.5t6 24.5q0 27 -18 27h-53l30 100h64l-15 -43q37 -2 52.5 -17.5t15.5 -50.5v-32q0 -39 -17.5 -55.5t-62.5 -16.5h-98z" />
<glyph unicode="&#xe8;" horiz-adv-x="774" d="M113 197v694q0 61 20.5 101t57 63.5t87 33t109.5 9.5t109.5 -9.5t87.5 -33t57.5 -63.5t20.5 -101v-381h-426v-313q0 -59 36.5 -84t114.5 -25t114 24.5t36 84.5v153h125v-153q0 -61 -20.5 -101.5t-57.5 -65t-87.5 -33.5t-109.5 -9t-109.5 9t-87 33.5t-57 65t-20.5 101.5z M236 623h301v268q0 59 -36 83.5t-114 24.5t-114.5 -24.5t-36.5 -83.5v-268zM262 1300v21h150l125 -92v-21h-150z" />
<glyph unicode="&#xe9;" horiz-adv-x="774" d="M113 197v694q0 61 20.5 101t57 63.5t87 33t109.5 9.5t109.5 -9.5t87.5 -33t57.5 -63.5t20.5 -101v-381h-426v-313q0 -59 36.5 -84t114.5 -25t114 24.5t36 84.5v153h125v-153q0 -61 -20.5 -101.5t-57.5 -65t-87.5 -33.5t-109.5 -9t-109.5 9t-87 33.5t-57 65t-20.5 101.5z M236 623h301v268q0 59 -36 83.5t-114 24.5t-114.5 -24.5t-36.5 -83.5v-268zM295 1208v21l124 92h150v-21l-125 -92h-149z" />
<glyph unicode="&#xea;" horiz-adv-x="774" d="M113 197v694q0 61 20.5 101t57 63.5t87 33t109.5 9.5t109.5 -9.5t87.5 -33t57.5 -63.5t20.5 -101v-381h-426v-313q0 -59 36.5 -84t114.5 -25t114 24.5t36 84.5v153h125v-153q0 -61 -20.5 -101.5t-57.5 -65t-87.5 -33.5t-109.5 -9t-109.5 9t-87 33.5t-57 65t-20.5 101.5z M236 623h301v268q0 59 -36 83.5t-114 24.5t-114.5 -24.5t-36.5 -83.5v-268zM170 1208v21l125 92h160l124 -92v-21h-149l-57 49l-54 -49h-149z" />
<glyph unicode="&#xeb;" horiz-adv-x="774" d="M113 197v694q0 61 20.5 101t57 63.5t87 33t109.5 9.5t109.5 -9.5t87.5 -33t57.5 -63.5t20.5 -101v-381h-426v-313q0 -59 36.5 -84t114.5 -25t114 24.5t36 84.5v153h125v-153q0 -61 -20.5 -101.5t-57.5 -65t-87.5 -33.5t-109.5 -9t-109.5 9t-87 33.5t-57 65t-20.5 101.5z M236 623h301v268q0 59 -36 83.5t-114 24.5t-114.5 -24.5t-36.5 -83.5v-268zM207 1208v113h133v-113h-133zM440 1208v113h134v-113h-134z" />
<glyph unicode="&#xec;" horiz-adv-x="358" d="M55 1280v20h150l125 -92v-20h-150zM117 0v1085h125v-1085h-125z" />
<glyph unicode="&#xed;" horiz-adv-x="372" d="M63 1188v20l125 92h150v-20l-125 -92h-150zM117 0h125v1085h-125v-1085z" />
<glyph unicode="&#xee;" horiz-adv-x="405" d="M-2 1208v21l125 92h160l125 -92v-21h-150l-57 49l-54 -49h-149zM139 0v1085h125v-1085h-125z" />
<glyph unicode="&#xef;" horiz-adv-x="407" d="M20 1208v113h134v-113h-134zM141 0v1085h125v-1085h-125zM254 1208v113h133v-113h-133z" />
<glyph unicode="&#xf0;" d="M98 197v487q0 61 23.5 101t63.5 63.5t92.5 33t111.5 9.5q41 0 68.5 -8.5t48.5 -14.5l-96 238l-121 -47l-41 102l119 47l-91 226h136l69 -181l117 47l41 -104l-117 -45l121 -303q10 -29 23.5 -76t13.5 -115v-460q0 -61 -22.5 -101.5t-62.5 -65t-93 -33.5t-113 -9 q-59 0 -111.5 9t-92.5 33.5t-63.5 65t-23.5 101.5zM223 197q0 -59 44 -84t122 -25t123 24.5t45 84.5v467q0 59 -45 94t-123 35t-122 -25t-44 -84v-487z" />
<glyph unicode="&#xf1;" horiz-adv-x="772" d="M113 0v1085h118v-55h17q29 20 50 32.5t40.5 21t42 11.5t51.5 3q117 0 172 -54.5t55 -154.5v-889h-124v885q0 53 -27 83.5t-82 30.5t-94 -24.5t-96 -79.5v-895h-123zM113 1208v21l125 92h159l49 -45l52 45h149v-21l-125 -92h-149l-58 49l-53 -49h-149z" />
<glyph unicode="&#xf2;" horiz-adv-x="774" d="M113 197v694q0 61 20.5 101t57 63.5t87 33t109.5 9.5t109.5 -9.5t87.5 -33t57.5 -63.5t20.5 -101v-694q0 -61 -20.5 -101.5t-57.5 -65t-87.5 -33.5t-109.5 -9t-109.5 9t-87 33.5t-57 65t-20.5 101.5zM236 197q0 -59 36.5 -84t114.5 -25t114 24.5t36 84.5v694 q0 59 -36 83.5t-114 24.5t-114.5 -24.5t-36.5 -83.5v-694zM221 1300v21h150l125 -92v-21h-150z" />
<glyph unicode="&#xf3;" horiz-adv-x="774" d="M113 197v694q0 61 20.5 101t57 63.5t87 33t109.5 9.5t109.5 -9.5t87.5 -33t57.5 -63.5t20.5 -101v-694q0 -61 -20.5 -101.5t-57.5 -65t-87.5 -33.5t-109.5 -9t-109.5 9t-87 33.5t-57 65t-20.5 101.5zM236 197q0 -59 36.5 -84t114.5 -25t114 24.5t36 84.5v694 q0 59 -36 83.5t-114 24.5t-114.5 -24.5t-36.5 -83.5v-694zM295 1208v21l124 92h150v-21l-125 -92h-149z" />
<glyph unicode="&#xf4;" horiz-adv-x="774" d="M113 197v694q0 61 20.5 101t57 63.5t87 33t109.5 9.5t109.5 -9.5t87.5 -33t57.5 -63.5t20.5 -101v-694q0 -61 -20.5 -101.5t-57.5 -65t-87.5 -33.5t-109.5 -9t-109.5 9t-87 33.5t-57 65t-20.5 101.5zM236 197q0 -59 36.5 -84t114.5 -25t114 24.5t36 84.5v694 q0 59 -36 83.5t-114 24.5t-114.5 -24.5t-36.5 -83.5v-694zM178 1208v21l125 92h160l124 -92v-21h-149l-57 49l-54 -49h-149z" />
<glyph unicode="&#xf5;" horiz-adv-x="774" d="M113 197v694q0 61 20.5 101t57 63.5t87 33t109.5 9.5t109.5 -9.5t87.5 -33t57.5 -63.5t20.5 -101v-694q0 -61 -20.5 -101.5t-57.5 -65t-87.5 -33.5t-109.5 -9t-109.5 9t-87 33.5t-57 65t-20.5 101.5zM236 197q0 -59 36.5 -84t114.5 -25t114 24.5t36 84.5v694 q0 59 -36 83.5t-114 24.5t-114.5 -24.5t-36.5 -83.5v-694zM113 1208v21l125 92h159l49 -45l52 45h149v-21l-125 -92h-149l-58 49l-53 -49h-149z" />
<glyph unicode="&#xf6;" horiz-adv-x="774" d="M113 197v694q0 61 20.5 101t57 63.5t87 33t109.5 9.5t109.5 -9.5t87.5 -33t57.5 -63.5t20.5 -101v-694q0 -61 -20.5 -101.5t-57.5 -65t-87.5 -33.5t-109.5 -9t-109.5 9t-87 33.5t-57 65t-20.5 101.5zM236 197q0 -59 36.5 -84t114.5 -25t114 24.5t36 84.5v694 q0 59 -36 83.5t-114 24.5t-114.5 -24.5t-36.5 -83.5v-694zM207 1208v113h133v-113h-133zM440 1208v113h134v-113h-134z" />
<glyph unicode="&#xf7;" d="M82 557v113h614v-113h-614zM324 258v152h131v-152h-131zM324 819v152h131v-152h-131z" />
<glyph unicode="&#xf8;" horiz-adv-x="774" d="M78 0l547 1085h77l-546 -1085h-78zM113 197v694q0 61 20.5 101t57 63.5t87 33t109.5 9.5t109.5 -9.5t87.5 -33t57.5 -63.5t20.5 -101v-694q0 -61 -20.5 -101.5t-57.5 -65t-87.5 -33.5t-109.5 -9t-109.5 9t-87 33.5t-57 65t-20.5 101.5zM236 197q0 -59 36.5 -84t114.5 -25 t114 24.5t36 84.5v694q0 59 -36 83.5t-114 24.5t-114.5 -24.5t-36.5 -83.5v-694z" />
<glyph unicode="&#xf9;" horiz-adv-x="772" d="M113 197v888h125v-884q0 -53 26.5 -84t81.5 -31q53 0 93 23.5t98 80.5v895h122v-1085h-118v55h-17q-29 -20 -50 -33.5t-40.5 -20.5t-41 -10t-52.5 -3q-117 0 -172 54.5t-55 154.5zM235 1300v21h150l125 -92v-21h-150z" />
<glyph unicode="&#xfa;" horiz-adv-x="772" d="M113 197v888h125v-884q0 -53 26.5 -84t81.5 -31q53 0 93 23.5t98 80.5v895h122v-1085h-118v55h-17q-29 -20 -50 -33.5t-40.5 -20.5t-41 -10t-52.5 -3q-117 0 -172 54.5t-55 154.5zM293 1208v21l124 92h150v-21l-125 -92h-149z" />
<glyph unicode="&#xfb;" horiz-adv-x="772" d="M113 197v888h125v-884q0 -53 26.5 -84t81.5 -31q53 0 93 23.5t98 80.5v895h122v-1085h-118v55h-17q-29 -20 -50 -33.5t-40.5 -20.5t-41 -10t-52.5 -3q-117 0 -172 54.5t-55 154.5zM178 1208v21l125 92h160l124 -92v-21h-149l-57 49l-54 -49h-149z" />
<glyph unicode="&#xfc;" horiz-adv-x="772" d="M113 197v888h125v-884q0 -53 26.5 -84t81.5 -31q53 0 93 23.5t98 80.5v895h122v-1085h-118v55h-17q-29 -20 -50 -33.5t-40.5 -20.5t-41 -10t-52.5 -3q-117 0 -172 54.5t-55 154.5zM205 1208v113h133v-113h-133zM438 1208v113h134v-113h-134z" />
<glyph unicode="&#xfd;" horiz-adv-x="743" d="M40 1085h127l207 -874h29l174 874h125l-221 -1085q-20 -106 -70.5 -160.5t-165.5 -54.5h-53v111h47q55 0 83 23.5t38 80.5l22 111h-102zM259 1208v21l124 92h150v-21l-125 -92h-149z" />
<glyph unicode="&#xfe;" horiz-adv-x="776" d="M113 -215v1300v349h123v-404h16q27 20 48.5 32.5t41.5 21t42 11.5t50 3q117 0 173.5 -54.5t56.5 -154.5v-692q0 -100 -56.5 -154.5t-173.5 -54.5q-29 0 -51.5 3t-43 10t-42 20.5t-49.5 33.5h-12v-270h-123zM236 190q57 -55 97 -79.5t95 -24.5t83 30.5t28 84.5v684 q0 53 -28 83.5t-83 30.5t-95 -24.5t-97 -79.5v-705z" />
<glyph unicode="&#xff;" horiz-adv-x="743" d="M40 1085h127l207 -874h29l174 874h125l-221 -1085q-20 -106 -70.5 -160.5t-165.5 -54.5h-53v111h47q55 0 83 23.5t38 80.5l22 111h-102zM191 1208v113h133v-113h-133zM424 1208v113h134v-113h-134z" />
<glyph unicode="&#x152;" horiz-adv-x="1169" d="M123 244v948q0 53 16.5 97t53 77t97 50.5t146.5 17.5h651v-111h-339v-522h329v-111h-329v-579h339v-111h-651q-86 0 -146.5 18.5t-97 50t-53 77t-16.5 98.5zM254 246q0 -59 39 -99q39 -37 143 -36h180v1212h-180q-104 0 -143 -38t-39 -97v-942z" />
<glyph unicode="&#x153;" horiz-adv-x="1189" d="M113 197v694q0 61 20.5 101t57 63.5t87 33t109.5 9.5q66 0 119 -16.5t88 -51.5q35 35 88 51.5t121 16.5q59 0 109.5 -9.5t87 -33t57 -63.5t20.5 -101v-381h-426v-313q0 -59 37 -84t115 -25t113.5 24.5t35.5 84.5v153h125v-153q0 -61 -20.5 -101.5t-57 -65t-87 -33.5 t-109.5 -9q-141 0 -209 67q-74 -68 -207 -67q-59 0 -109.5 9t-87 33.5t-57 65t-20.5 101.5zM236 197q0 -59 36.5 -84t114.5 -25t114 24.5t36 84.5v694q0 59 -36 83.5t-114 24.5t-114.5 -24.5t-36.5 -83.5v-694zM651 623h301v268q0 59 -35.5 83.5t-113.5 24.5t-115 -24.5 t-37 -83.5v-268z" />
<glyph unicode="&#x178;" horiz-adv-x="794" d="M41 1434h139l203 -668h28l203 668h139l-288 -871v-563h-131v557zM213 1536v113h133v-113h-133zM446 1536v113h134v-113h-134z" />
<glyph unicode="&#x2c6;" horiz-adv-x="768" d="M166 1208v21l125 92h160l124 -92v-21h-149l-57 49l-54 -49h-149z" />
<glyph unicode="&#x2da;" horiz-adv-x="768" d="M246 1268v75q0 47 21.5 69t72.5 22h90q49 0 70.5 -21.5t21.5 -69.5v-75q0 -47 -21.5 -68.5t-70.5 -21.5h-90q-51 0 -72.5 21.5t-21.5 68.5zM334 1290q0 -18 6 -26.5t25 -8.5h41q18 0 24 8.5t6 26.5v41q-4 25 -30 25h-41q-29 0 -31 -25v-41z" />
<glyph unicode="&#x2dc;" horiz-adv-x="768" d="M113 1208v21l125 92h159l49 -45l52 45h149v-21l-125 -92h-149l-58 49l-53 -49h-149z" />
<glyph unicode="&#x2000;" horiz-adv-x="823" />
<glyph unicode="&#x2001;" horiz-adv-x="1648" />
<glyph unicode="&#x2002;" horiz-adv-x="823" />
<glyph unicode="&#x2003;" horiz-adv-x="1648" />
<glyph unicode="&#x2004;" horiz-adv-x="548" />
<glyph unicode="&#x2005;" horiz-adv-x="411" />
<glyph unicode="&#x2006;" horiz-adv-x="274" />
<glyph unicode="&#x2007;" horiz-adv-x="274" />
<glyph unicode="&#x2008;" horiz-adv-x="204" />
<glyph unicode="&#x2009;" horiz-adv-x="329" />
<glyph unicode="&#x200a;" horiz-adv-x="90" />
<glyph unicode="&#x2010;" horiz-adv-x="534" d="M86 557v113h363v-113h-363z" />
<glyph unicode="&#x2011;" horiz-adv-x="534" d="M86 557v113h363v-113h-363z" />
<glyph unicode="&#x2012;" horiz-adv-x="534" d="M86 557v113h363v-113h-363z" />
<glyph unicode="&#x2013;" horiz-adv-x="614" d="M0 555v115h614v-115h-614z" />
<glyph unicode="&#x2014;" horiz-adv-x="1024" d="M0 557v113h1024v-113h-1024z" />
<glyph unicode="&#x2018;" horiz-adv-x="319" d="M82 1139l106 295h50v-295h-156z" />
<glyph unicode="&#x2019;" horiz-adv-x="319" d="M82 1139v295h156l-107 -295h-49z" />
<glyph unicode="&#x201a;" horiz-adv-x="319" d="M82 -143v295h156l-107 -295h-49z" />
<glyph unicode="&#x201c;" horiz-adv-x="542" d="M82 1139l106 295h50v-295h-156zM305 1139l107 295h49v-295h-156z" />
<glyph unicode="&#x201d;" horiz-adv-x="542" d="M82 1139v295h156l-107 -295h-49zM305 1139v295h156l-107 -295h-49z" />
<glyph unicode="&#x201e;" horiz-adv-x="542" d="M82 -143v295h156l-107 -295h-49zM305 -143v295h156l-107 -295h-49z" />
<glyph unicode="&#x2022;" horiz-adv-x="440" d="M82 625v75q0 47 21.5 69t72.5 22h90q49 0 70.5 -21.5t21.5 -69.5v-75q0 -47 -21.5 -68.5t-70.5 -21.5h-90q-51 0 -72.5 21.5t-21.5 68.5z" />
<glyph unicode="&#x2026;" horiz-adv-x="819" d="M82 0v152h131v-152h-131zM344 0v152h131v-152h-131zM606 0v152h131v-152h-131z" />
<glyph unicode="&#x202f;" horiz-adv-x="329" />
<glyph unicode="&#x2039;" horiz-adv-x="538" d="M82 565v94l375 426v-170l-258 -290v-25l258 -291v-170z" />
<glyph unicode="&#x203a;" horiz-adv-x="538" d="M82 139v170l258 291v25l-258 290v170l375 -426v-94z" />
<glyph unicode="&#x205f;" horiz-adv-x="411" />
<glyph unicode="&#x20ac;" d="M35 530v113h88v172h-88v113h88v319q0 92 70.5 145.5t214.5 53.5q143 0 213.5 -53.5t70.5 -145.5v-188h-131v184q0 47 -37 69.5t-116 22.5q-154 0 -154 -92v-315h307v-113h-307v-172h307v-113h-307v-340q0 -92 154 -92q80 0 116.5 22.5t36.5 69.5v201h131v-205 q0 -92 -70.5 -145t-213.5 -53t-214 53t-71 145v344h-88z" />
<glyph unicode="&#x2122;" horiz-adv-x="974" d="M82 1325v109h303v-109h-90v-465h-117v465h-96zM446 860v574h172l46 -336h12l51 336h166v-574h-113v318h-10l-53 -318h-84l-64 318h-10v-318h-113z" />
<glyph unicode="&#xe000;" horiz-adv-x="1085" d="M0 1085h1085v-1085h-1085v1085z" />
<glyph unicode="&#xfb01;" horiz-adv-x="851" d="M607 1208v113h133v-113h-133zM611 0v1085h125v-1085h-125zM51 973v112h133v140q0 100 55.5 154.5t172.5 54.5h30v-111h-24q-109 0 -109 -102v-136h133v-112h-133v-973h-125v973h-133z" />
<glyph unicode="&#xfb02;" horiz-adv-x="841" d="M607 0v1434h123v-1434h-123zM51 973v112h133v140q0 100 55.5 154.5t172.5 54.5h30v-111h-24q-109 0 -109 -102v-136h133v-112h-133v-973h-125v973h-133z" />
<glyph unicode="&#xfb03;" horiz-adv-x="1345" d="M1100 1208v113h133v-113h-133zM1104 0v1085h125v-1085h-125zM545 973v112h133v140q0 100 55.5 154.5t172.5 54.5h30v-111h-24q-109 0 -109 -102v-136h133v-112h-133v-973h-125v973h-133zM51 973v112h133v140q0 100 55.5 154.5t172.5 54.5h30v-111h-24q-109 0 -109 -102 v-136h133v-112h-133v-973h-125v973h-133z" />
<glyph unicode="&#xfb04;" horiz-adv-x="1335" d="M1100 0v1434h123v-1434h-123zM545 973v112h133v140q0 100 55.5 154.5t172.5 54.5h30v-111h-24q-109 0 -109 -102v-136h133v-112h-133v-973h-125v973h-133zM51 973v112h133v140q0 100 55.5 154.5t172.5 54.5h30v-111h-24q-109 0 -109 -102v-136h133v-112h-133v-973h-125 v973h-133z" />
</font>
</defs>
</svg>
